<?xml version="1.0" standalone="no"?>
<!DOCTYPE svg PUBLIC "-//W3C//DTD SVG 1.1//EN" "http://www.w3.org/Graphics/SVG/1.1/DTD/svg11.dtd">
<svg xmlns="http://www.w3.org/2000/svg">
<metadata>Iconscout</metadata>
<defs>
<font id="unicons-15" horiz-adv-x="1000" >
<font-face font-family="unicons-15" font-weight="400" font-stretch="normal" units-per-em="1000" ascent="850" descent="-150" />
<missing-glyph horiz-adv-x="1000" />
<glyph glyph-name="border-out" unicode="&#xeb8a;" d="M500 475a42 42 0 1 1-42 42 42 42 0 0 1 42-42z m0-167a42 42 0 1 1-42 42 42 42 0 0 1 42-42z m167 0a42 42 0 1 1-42 42 42 42 0 0 1 42-42z m-167-166a42 42 0 1 1-42 41 42 42 0 0 1 42-41z m333 583h-666a42 42 0 0 1-42-42v-666a42 42 0 0 1 42-42h666a42 42 0 0 1 42 42v666a42 42 0 0 1-42 42z m-41-667h-584v584h584z m-459 250a42 42 0 1 1-41 42 42 42 0 0 1 41-42z" horiz-adv-x="1000" />

<glyph glyph-name="border-horizontal" unicode="&#xeb8b;" d="M333 642a42 42 0 1 1-41 41 42 42 0 0 1 41-41z m-166-167a42 42 0 1 1-42 42 42 42 0 0 1 42-42z m333 0a42 42 0 1 1-42 42 42 42 0 0 1 42-42z m-333 167a42 42 0 1 1-42 41 42 42 0 0 1 42-41z m500 0a42 42 0 1 1-42 41 42 42 0 0 1 42-41z m-167 0a42 42 0 1 1-42 41 42 42 0 0 1 42-41z m333 0a42 42 0 1 1-41 41 42 42 0 0 1 41-41z m-666-584a42 42 0 1 1 41-41 42 42 0 0 1-41 41z m666 0a42 42 0 1 1 42-41 42 42 0 0 1-42 41z m0 167a42 42 0 1 1 42-42 42 42 0 0 1-42 42z m0 167h-666a42 42 0 0 1 0-84h666a42 42 0 0 1 0 84z m-166-334a42 42 0 1 1 41-41 42 42 0 0 1-41 41z m-500 167a42 42 0 1 1 41-42 42 42 0 0 1-41 42z m666 333a42 42 0 1 1 42-41 42 42 0 0 1-42 41z m-500-500a42 42 0 1 1 42-41 42 42 0 0 1-42 41z m167 0a42 42 0 1 1 42-41 42 42 0 0 1-42 41z m0 167a42 42 0 1 1 42-42 42 42 0 0 1-42 42z" horiz-adv-x="1000" />

<glyph glyph-name="document-layout-left" unicode="&#xeb8c;" d="M125 350h250a42 42 0 0 1 42 42v250a42 42 0 0 1-42 41h-250a42 42 0 0 1-42-41v-250a42 42 0 0 1 42-42z m42 250h166v-167h-166z m375-83h333a42 42 0 0 1 0 83h-333a42 42 0 0 1 0-83z m0-417h-417a42 42 0 0 1 0-83h417a42 42 0 0 1 0 83z m333 167h-750a42 42 0 0 1 0-84h750a42 42 0 0 1 0 84z m0 166h-333a42 42 0 0 1 0-83h333a42 42 0 0 1 0 83z" horiz-adv-x="1000" />

<glyph glyph-name="compress" unicode="&#xeb8d;" d="M667 475h208a42 42 0 0 1 0 83h-167v167a42 42 0 0 1-83 0v-208a42 42 0 0 1 42-42z m-334-250h-208a42 42 0 0 1 0-83h167v-167a42 42 0 0 1 83 0v208a42 42 0 0 1-42 42z m0 542a42 42 0 0 1-41-42v-167h-167a42 42 0 0 1 0-83h208a42 42 0 0 1 42 42v208a42 42 0 0 1-42 42z m542-542h-208a42 42 0 0 1-42-42v-208a42 42 0 0 1 83 0v167h167a42 42 0 0 1 0 83z" horiz-adv-x="1000" />

<glyph glyph-name="grip-horizontal-line" unicode="&#xeb8e;" d="M125 392h750a42 42 0 0 1 0 83h-750a42 42 0 0 1 0-83z m750-84h-750a42 42 0 0 1 0-83h750a42 42 0 0 1 0 83z" horiz-adv-x="1000" />

<glyph glyph-name="dialpad-alt" unicode="&#xeb8f;" d="M208 465a115 115 0 1 1 115-115 115 115 0 0 1-115 115z m0-167a52 52 0 1 0 52 52 52 52 0 0 0-52-52z m292 167a115 115 0 1 1 115-115 115 115 0 0 1-115 115z m0-167a52 52 0 1 0 52 52 52 52 0 0 0-52-52z m292 229a115 115 0 1 1-115 115 115 115 0 0 1 115-115z m0 167a52 52 0 1 0-52-52 52 52 0 0 0 52 52z m0-229a115 115 0 1 1 114-115 115 115 0 0 1-114 115z m0-167a52 52 0 1 0 52 52 52 52 0 0 0-52-52z m-584 458a115 115 0 1 1 115-114 115 115 0 0 1-115 114z m0-166a52 52 0 1 0 52 52 52 52 0 0 0-52-52z m292-417a115 115 0 1 1 115-115 115 115 0 0 1-115 115z m0-167a52 52 0 1 0 52 52 52 52 0 0 0-52-52z m0 750a115 115 0 1 1 115-114 115 115 0 0 1-115 114z m0-166a52 52 0 1 0 52 52 52 52 0 0 0-52-52z" horiz-adv-x="1000" />

<glyph glyph-name="document-layout-center" unicode="&#xeb90;" d="M375 350h250a42 42 0 0 1 42 42v250a42 42 0 0 1-42 41h-250a42 42 0 0 1-42-41v-250a42 42 0 0 1 42-42z m42 250h166v-167h-166z m458-167h-83a42 42 0 0 1 0-83h83a42 42 0 0 1 0 83z m-83 84h83a42 42 0 0 1 0 83h-83a42 42 0 0 1 0-83z m-667 0h83a42 42 0 0 1 0 83h-83a42 42 0 0 1 0-83z m0-167h83a42 42 0 0 1 0 83h-83a42 42 0 0 1 0-83z m750-83h-750a42 42 0 0 1 0-84h750a42 42 0 0 1 0 84z m-333-167h-417a42 42 0 0 1 0-83h417a42 42 0 0 1 0 83z" horiz-adv-x="1000" />

<glyph glyph-name="border-bottom" unicode="&#xeb91;" d="M500 288a42 42 0 1 1-42 41 42 42 0 0 1 42-41z m0-167a42 42 0 1 1-42 42 42 42 0 0 1 42-42z m0 333a42 42 0 1 1-42 42 42 42 0 0 1 42-42z m-167 167a42 42 0 1 1-41 42 42 42 0 0 1 41-42z m0-333a42 42 0 1 1-41 41 42 42 0 0 1 41-41z m500 333a42 42 0 1 1-41 42 42 42 0 0 1 41-42z m-166-333a42 42 0 1 1-42 41 42 42 0 0 1 42-41z m-167 333a42 42 0 1 1-42 42 42 42 0 0 1 42-42z m167 0a42 42 0 1 1-42 42 42 42 0 0 1 42-42z m166-417a42 42 0 1 1 42-41 42 42 0 0 1-42 41z m0 167a42 42 0 1 1 42-42 42 42 0 0 1-42 42z m0-333h-666a42 42 0 0 1 0-84h666a42 42 0 0 1 0 84z m0 500a42 42 0 1 1 42-42 42 42 0 0 1-42 42z m-666-250a42 42 0 1 1-42 41 42 42 0 0 1 42-41z m0 166a42 42 0 1 1-42 42 42 42 0 0 1 42-42z m0-333a42 42 0 1 1-42 41 42 42 0 0 1 42-41z m0 500a42 42 0 1 1-42 41 42 42 0 0 1 42-41z" horiz-adv-x="1000" />

<glyph glyph-name="dialpad" unicode="&#xeb92;" d="M292 756h-167a32 32 0 0 1-31-31v-167a32 32 0 0 1 31-31h167a32 32 0 0 1 31 31v167a32 32 0 0 1-31 31z m-32-166h-104v104h104z m615 166h-167a32 32 0 0 1-31-31v-167a32 32 0 0 1 31-31h167a32 32 0 0 1 31 31v167a32 32 0 0 1-31 31z m-31-166h-104v104h104z m-261 166h-166a32 32 0 0 1-32-31v-167a32 32 0 0 1 32-31h166a32 32 0 0 1 32 31v167a32 32 0 0 1-32 31z m-31-166h-104v104h104z m-260-125h-167a32 32 0 0 1-31-32v-166a32 32 0 0 1 31-32h167a32 32 0 0 1 31 32v166a32 32 0 0 1-31 32z m-32-167h-104v104h104z m323 167h-166a32 32 0 0 1-32-32v-166a32 32 0 0 1 32-32h166a32 32 0 0 1 32 32v166a32 32 0 0 1-32 32z m-31-167h-104v104h104z m323 167h-167a32 32 0 0 1-31-32v-166a32 32 0 0 1 31-32h167a32 32 0 0 1 31 32v166a32 32 0 0 1-31 32z m-31-167h-104v104h104z m-261-125h-166a32 32 0 0 1-32-31v-167a32 32 0 0 1 32-31h166a32 32 0 0 1 32 31v167a32 32 0 0 1-32 31z m-31-167h-104v104h104z" horiz-adv-x="1000" />

<glyph glyph-name="document-layout-right" unicode="&#xeb93;" d="M542 100h-417a42 42 0 0 1 0-83h417a42 42 0 0 1 0 83z m-417 417h333a42 42 0 0 1 0 83h-333a42 42 0 0 1 0-83z m0-167h333a42 42 0 0 1 0 83h-333a42 42 0 0 1 0-83z m750-83h-750a42 42 0 0 1 0-84h750a42 42 0 0 1 0 84z m0 416h-250a42 42 0 0 1-42-41v-250a42 42 0 0 1 42-42h250a42 42 0 0 1 42 42v250a42 42 0 0 1-42 41z m-42-250h-166v167h166z" horiz-adv-x="1000" />

<glyph glyph-name="align-center" unicode="&#xeb94;" d="M125 558h750a42 42 0 0 1 0 84h-750a42 42 0 0 1 0-84z m167-83a42 42 0 0 1 0-83h416a42 42 0 0 1 0 83z m583-167h-750a42 42 0 0 1 0-83h750a42 42 0 0 1 0 83z m-167-166h-416a42 42 0 0 1 0-84h416a42 42 0 0 1 0 84z" horiz-adv-x="1000" />

<glyph glyph-name="sort-amount-down" unicode="&#xeb95;" d="M262 255l-12-13v316a42 42 0 0 1-83 0v-316l-12 13a42 42 0 0 1-60-60l84-83a42 42 0 0 1 14-9 39 39 0 0 1 31 0 42 42 0 0 1 14 9l83 83a42 42 0 0 1-59 60z m196 262h417a42 42 0 0 1 0 83h-417a42 42 0 0 1 0-83z m417-125h-417a42 42 0 0 1 0-84h417a42 42 0 0 1 0 84z m0-209h-417a42 42 0 0 1 0-83h417a42 42 0 0 1 0 83z" horiz-adv-x="1000" />

<glyph glyph-name="align-center-alt" unicode="&#xeb96;" d="M208 517h584a42 42 0 0 1 0 83h-584a42 42 0 0 1 0-83z m667-125h-750a42 42 0 0 1 0-84h750a42 42 0 0 1 0 84z m-83-209h-584a42 42 0 0 1 0-83h584a42 42 0 0 1 0 83z" horiz-adv-x="1000" />

<glyph glyph-name="align-letter-right" unicode="&#xeb97;" d="M417 683h458a42 42 0 0 1 0 84h-458a42 42 0 0 1 0-84z m458-666h-750a42 42 0 0 1 0-84h750a42 42 0 0 1 0 84z m0 583h-750a42 42 0 0 1 0-83h750a42 42 0 0 1 0 83z m0-417h-417a42 42 0 0 1 0-83h417a42 42 0 0 1 0 83z m0 250h-750a42 42 0 0 1 0-83h750a42 42 0 0 1 0 83z" horiz-adv-x="1000" />

<glyph glyph-name="border-alt" unicode="&#xeb98;" d="M479 79a42 42 0 1 1 42-41 42 42 0 0 1-42 41z m375 625a42 42 0 0 1-41 42h-667a42 42 0 0 1-42-42v-666a42 42 0 0 1 84 0v625h625a42 42 0 0 1 41 41z m-208-625a42 42 0 1 1 41-41 42 42 0 0 1-41 41z m-334 0a42 42 0 1 1 42-41 42 42 0 0 1-41 41z m501 500a42 42 0 1 1 41-41 42 42 0 0 1-41 41z m0-166a42 42 0 1 1 41-42 42 42 0 0 1-41 42z m0-167a42 42 0 1 1 41-42 42 42 0 0 1-41 42z m0-167a42 42 0 1 1 41-41 42 42 0 0 1-41 41z" horiz-adv-x="1000" />

<glyph glyph-name="align-center-justify" unicode="&#xeb99;" d="M875 225h-750a42 42 0 0 1 0-83h750a42 42 0 0 1 0 83z m-750 417h750a42 42 0 0 1 0 83h-750a42 42 0 0 1 0-83z m583-584h-416a42 42 0 0 1 0-83h416a42 42 0 0 1 0 83z m167 500h-750a42 42 0 0 1 0-83h750a42 42 0 0 1 0 83z m0-166h-750a42 42 0 0 1 0-84h750a42 42 0 0 1 0 84z" horiz-adv-x="1000" />

<glyph glyph-name="align-alt" unicode="&#xeb9a;" d="M417 392h-292a42 42 0 0 1 0-84h292a42 42 0 0 1 0 84z m0-334h-292a42 42 0 0 1 0-83h292a42 42 0 0 1 0 83z m166 584h292a42 42 0 0 1 0 83h-292a42 42 0 0 1 0-83z m-166-84h-292a42 42 0 0 1 0-83h292a42 42 0 0 1 0 83z m0-333h-292a42 42 0 0 1 0-83h292a42 42 0 0 1 0 83z m0 500h-125a42 42 0 0 1 0-83h125a42 42 0 0 1 0 83z m458-167h-292a42 42 0 0 1 0-83h292a42 42 0 0 1 0 83z m0-166h-292a42 42 0 0 1 0-84h292a42 42 0 0 1 0 84z m-167-334h-125a42 42 0 0 1 0-83h125a42 42 0 0 1 0 83z m167 167h-292a42 42 0 0 1 0-83h292a42 42 0 0 1 0 83z" horiz-adv-x="1000" />

<glyph glyph-name="border-vertical" unicode="&#xeb9b;" d="M125 725a42 42 0 1 1 42-42 42 42 0 0 1-42 42z m0-167a42 42 0 1 1 42-41 42 42 0 0 1-42 41z m667 84a42 42 0 1 1-42 41 42 42 0 0 1 42-41z m-500-250a42 42 0 1 1 41-42 42 42 0 0 1-41 42z m0-334a42 42 0 1 1 41-41 42 42 0 0 1-41 41z m0 667a42 42 0 1 1 41-42 42 42 0 0 1-41 42z m-167-500a42 42 0 1 1 42-42 42 42 0 0 1-42 42z m0 167a42 42 0 1 1 42-42 42 42 0 0 1-42 42z m0-334a42 42 0 1 1 42-41 42 42 0 0 1-42 41z m667 167a42 42 0 1 1 41-42 42 42 0 0 1-41 42z m0 167a42 42 0 1 1 41-42 42 42 0 0 1-41 42z m0-334a42 42 0 1 1 41-41 42 42 0 0 1-41 41z m0 500a42 42 0 1 1 41-41 42 42 0 0 1-41 41z m-167 167a42 42 0 1 1 42-42 42 42 0 0 1-42 42z m-167 0a42 42 0 0 1-41-42v-666a42 42 0 0 1 83 0v666a42 42 0 0 1-42 42z m167-667a42 42 0 1 1 42-41 42 42 0 0 1-42 41z m0 334a42 42 0 1 1 42-42 42 42 0 0 1-42 42z" horiz-adv-x="1000" />

<glyph glyph-name="sort-amount-up" unicode="&#xeb9c;" d="M238 588a42 42 0 0 1-14 9 42 42 0 0 1-31 0 42 42 0 0 1-14-9l-84-83a42 42 0 0 1 60-60l12 13v-316a42 42 0 0 1 83 0v316l12-13a42 42 0 0 1 59 0 42 42 0 0 1 0 60z m220-71h417a42 42 0 0 1 0 83h-417a42 42 0 0 1 0-83z m417-334h-417a42 42 0 0 1 0-83h417a42 42 0 0 1 0 83z m0 209h-417a42 42 0 0 1 0-84h417a42 42 0 0 1 0 84z" horiz-adv-x="1000" />

<glyph glyph-name="wrap-text" unicode="&#xeb9d;" d="M125 558h750a42 42 0 0 1 0 84h-750a42 42 0 0 1 0-84z m250-333h-250a42 42 0 0 1 0-83h250a42 42 0 0 1 0 83z m396 208h-646a42 42 0 0 1 0-83h646a63 63 0 0 0 0-125h-129l13 12a42 42 0 0 1-60 59l-83-83a42 42 0 0 1-9-14 42 42 0 0 1 0-31 42 42 0 0 1 9-14l83-84a42 42 0 0 1 60 0 42 42 0 0 1 0 60l-13 12h129a146 146 0 0 1 0 291z" horiz-adv-x="1000" />

<glyph glyph-name="align-left-justify" unicode="&#xeb9e;" d="M125 642h750a42 42 0 0 1 0 83h-750a42 42 0 0 1 0-83z m500-584h-500a42 42 0 0 1 0-83h500a42 42 0 0 1 0 83z m250 334h-750a42 42 0 0 1 0-84h750a42 42 0 0 1 0 84z m0 166h-750a42 42 0 0 1 0-83h750a42 42 0 0 1 0 83z m0-333h-750a42 42 0 0 1 0-83h750a42 42 0 0 1 0 83z" horiz-adv-x="1000" />

<glyph glyph-name="angle-right-b" unicode="&#xeb9f;" d="M647 380l-235 235a42 42 0 0 1-59 0 42 42 0 0 1 0-59l206-208-206-206a42 42 0 0 1 0-59 42 42 0 0 1 29-13 42 42 0 0 1 30 13l236 235a42 42 0 0 1-1 62z" horiz-adv-x="1000" />

<glyph glyph-name="paragraph" unicode="&#xeba0;" d="M542 288h-417a42 42 0 0 1 0-84h417a42 42 0 0 1 0 84z m333 208h-750a42 42 0 0 1 0-83h750a42 42 0 0 1 0 83z" horiz-adv-x="1000" />

<glyph glyph-name="right-indent-alt" unicode="&#xeba1;" d="M152 452a42 42 0 1 1-54-64l45-38-45-37a42 42 0 0 1-5-59 42 42 0 0 1 59-6l83 70a42 42 0 0 1 0 64z m223 190a42 42 0 0 1-42-42v-500a42 42 0 0 1 84 0v500a42 42 0 0 1-42 42z m167-84h333a42 42 0 0 1 0 84h-333a42 42 0 0 1 0-84z m333-416h-333a42 42 0 0 1 0-84h333a42 42 0 0 1 0 84z m0 333h-333a42 42 0 0 1 0-83h333a42 42 0 0 1 0 83z m0-167h-333a42 42 0 0 1 0-83h333a42 42 0 0 1 0 83z" horiz-adv-x="1000" />

<glyph glyph-name="border-right" unicode="&#xeba2;" d="M188 558a42 42 0 1 1 41-41 42 42 0 0 1-41 41z m0 167a42 42 0 1 1 41-42 42 42 0 0 1-41 42z m166-667a42 42 0 1 1 42-41 42 42 0 0 1-42 41z m-167 0a42 42 0 1 1 42-41 42 42 0 0 1-41 41z m167 334a42 42 0 1 1 42-42 42 42 0 0 1-42 42z m0 333a42 42 0 1 1 42-42 42 42 0 0 1-42 42z m-167-333a42 42 0 1 1 42-42 42 42 0 0 1-41 42z m0-167a42 42 0 1 1 42-42 42 42 0 0 1-41 42z m501 500a42 42 0 1 1 41-42 42 42 0 0 1-41 42z m0-333a42 42 0 1 1 41-42 42 42 0 0 1-41 42z m-167-334a42 42 0 1 1 42-41 42 42 0 0 1-42 41z m0 667a42 42 0 1 1 42-42 42 42 0 0 1-42 42z m333 0a42 42 0 0 1-41-42v-666a42 42 0 0 1 83 0v666a42 42 0 0 1-42 42z m-166-667a42 42 0 1 1 41-41 42 42 0 0 1-41 41z m-167 500a42 42 0 1 1 42-41 42 42 0 0 1-42 41z m0-333a42 42 0 1 1 42-42 42 42 0 0 1-42 42z m0 167a42 42 0 1 1 42-42 42 42 0 0 1-42 42z" horiz-adv-x="1000" />

<glyph glyph-name="align-right-justify" unicode="&#xeba3;" d="M125 642h750a42 42 0 0 1 0 83h-750a42 42 0 0 1 0-83z m750-584h-417a42 42 0 0 1 0-83h417a42 42 0 0 1 0 83z m0 334h-750a42 42 0 0 1 0-84h750a42 42 0 0 1 0 84z m0-167h-750a42 42 0 0 1 0-83h750a42 42 0 0 1 0 83z m0 333h-750a42 42 0 0 1 0-83h750a42 42 0 0 1 0 83z" horiz-adv-x="1000" />

<glyph glyph-name="align" unicode="&#xeba4;" d="M125 225h417a42 42 0 0 1 0 83h-417a42 42 0 0 1 0-83z m0 167h417a42 42 0 0 1 0 83h-417a42 42 0 0 1 0-83z m0 166h750a42 42 0 0 1 0 84h-750a42 42 0 0 1 0-84z m750-416h-750a42 42 0 0 1 0-84h750a42 42 0 0 1 0 84z m-57 309a42 42 0 1 1-53-63l45-38-45-37a42 42 0 0 1-5-59 42 42 0 0 1 32-15 42 42 0 0 1 26 10l84 69a42 42 0 0 1 0 64z" horiz-adv-x="1000" />

<glyph glyph-name="border-clear" unicode="&#xeba5;" d="M333 392a42 42 0 1 1 42-42 42 42 0 0 1-42 42z m0-334a42 42 0 1 1 42-41 42 42 0 0 1-42 41z m167 0a42 42 0 1 1 42-41 42 42 0 0 1-42 41z m-333 667a42 42 0 1 1 41-42 42 42 0 0 1-41 42z m0-333a42 42 0 1 1 41-42 42 42 0 0 1-41 42z m666 250a42 42 0 1 1-41 41 42 42 0 0 1 41-41z m-666-584a42 42 0 1 1 41-41 42 42 0 0 1-41 41z m333 167a42 42 0 1 1 42-42 42 42 0 0 1-42 42z m-333 0a42 42 0 1 1 41-42 42 42 0 0 1-41 42z m0 333a42 42 0 1 1 41-41 42 42 0 0 1-41 41z m166 167a42 42 0 1 1 42-42 42 42 0 0 1-42 42z m500-500a42 42 0 1 1 42-42 42 42 0 0 1-42 42z m0-167a42 42 0 1 1 42-41 42 42 0 0 1-42 41z m0 500a42 42 0 1 1 42-41 42 42 0 0 1-42 41z m-333-166a42 42 0 1 1 42-42 42 42 0 0 1-42 42z m333 0a42 42 0 1 1 42-42 42 42 0 0 1-42 42z m-166 333a42 42 0 1 1 41-42 42 42 0 0 1-41 42z m-167 0a42 42 0 1 1 42-42 42 42 0 0 1-42 42z m0-167a42 42 0 1 1 42-41 42 42 0 0 1-42 41z m167-500a42 42 0 1 1 41-41 42 42 0 0 1-41 41z m0 334a42 42 0 1 1 41-42 42 42 0 0 1-41 42z" horiz-adv-x="1000" />

<glyph glyph-name="align-right" unicode="&#xeba6;" d="M125 558h750a42 42 0 0 1 0 84h-750a42 42 0 0 1 0-84z m750-416h-583a42 42 0 0 1 0-84h583a42 42 0 0 1 0 84z m0 333h-583a42 42 0 0 1 0-83h583a42 42 0 0 1 0 83z m0-167h-750a42 42 0 0 1 0-83h750a42 42 0 0 1 0 83z" horiz-adv-x="1000" />

<glyph glyph-name="list-ui-alt" unicode="&#xeba7;" d="M146 600a42 42 0 1 1 41-42 42 42 0 0 1-41 42z m167-83h583a42 42 0 0 1 0 83h-583a42 42 0 0 1 0-83z m0-125a42 42 0 1 1 41-42 42 42 0 0 1-41 42z m166-209a42 42 0 1 1 42-41 42 42 0 0 1-42 41z m417 209h-417a42 42 0 0 1 0-84h417a42 42 0 0 1 0 84z m0-209h-250a42 42 0 0 1 0-83h250a42 42 0 0 1 0 83z" horiz-adv-x="1000" />

<glyph glyph-name="left-indent" unicode="&#xeba8;" d="M125 558h750a42 42 0 0 1 0 84h-750a42 42 0 0 1 0-84z m0-166h417a42 42 0 0 1 0 83h-417a42 42 0 0 1 0-83z m782 54a42 42 0 0 1-59 5l-83-69a42 42 0 0 1 0-64l83-69a42 42 0 0 1 27-10 42 42 0 0 1 32 15 42 42 0 0 1-5 59l-45 37 45 38a42 42 0 0 1 5 58z m-32-304h-750a42 42 0 0 1 0-84h750a42 42 0 0 1 0 84z m-750 83h417a42 42 0 0 1 0 83h-417a42 42 0 0 1 0-83z" horiz-adv-x="1000" />

<glyph glyph-name="left-indent-alt" unicode="&#xeba9;" d="M375 642a42 42 0 0 1-42-42v-500a42 42 0 0 1 84 0v500a42 42 0 0 1-42 42z m167-84h333a42 42 0 0 1 0 84h-333a42 42 0 0 1 0-84z m-302-112a42 42 0 0 1-58 6l-84-70a42 42 0 0 1 0-64l84-70a42 42 0 0 1 58 6 42 42 0 0 1-5 59l-45 37 45 38a42 42 0 0 1 5 58z m635 29h-333a42 42 0 0 1 0-83h333a42 42 0 0 1 0 83z m0-167h-333a42 42 0 0 1 0-83h333a42 42 0 0 1 0 83z m0-166h-333a42 42 0 0 1 0-84h333a42 42 0 0 1 0 84z" horiz-adv-x="1000" />

<glyph glyph-name="border-left" unicode="&#xebaa;" d="M479 58a42 42 0 1 1 42-41 42 42 0 0 1-42 41z m0 167a42 42 0 1 1 42-42 42 42 0 0 1-42 42z m0 167a42 42 0 1 1 42-42 42 42 0 0 1-42 42z m-333 333a42 42 0 0 1-42-42v-666a42 42 0 0 1 84 0v666a42 42 0 0 1-42 42z m667-83a42 42 0 1 1-42 41 42 42 0 0 1 42-41z m-334-84a42 42 0 1 1 42-41 42 42 0 0 1-42 41z m-166-166a42 42 0 1 1 41-42 42 42 0 0 1-41 42z m0-334a42 42 0 1 1 41-41 42 42 0 0 1-41 41z m0 667a42 42 0 1 1 41-42 42 42 0 0 1-41 42z m500-333a42 42 0 1 1 41-42 42 42 0 0 1-41 42z m0-167a42 42 0 1 1 41-42 42 42 0 0 1-41 42z m-334 500a42 42 0 1 1 42-42 42 42 0 0 1-42 42z m334-667a42 42 0 1 1 41-41 42 42 0 0 1-41 41z m0 500a42 42 0 1 1 41-41 42 42 0 0 1-41 41z m-167 167a42 42 0 1 1 42-42 42 42 0 0 1-42 42z m0-667a42 42 0 1 1 42-41 42 42 0 0 1-42 41z m0 334a42 42 0 1 1 42-42 42 42 0 0 1-42 42z" horiz-adv-x="1000" />

<glyph glyph-name="border-top" unicode="&#xebab;" d="M333 79a42 42 0 1 1 42-41 42 42 0 0 1-42 41z m0 334a42 42 0 1 1 42-42 42 42 0 0 1-42 42z m167-334a42 42 0 1 1 42-41 42 42 0 0 1-42 41z m-333 500a42 42 0 1 1 41-41 42 42 0 0 1-41 41z m0-500a42 42 0 1 1 41-41 42 42 0 0 1-41 41z m0 584h666a42 42 0 0 1 0 83h-666a42 42 0 0 1 0-83z m0-417a42 42 0 1 1 41-42 42 42 0 0 1-41 42z m0 167a42 42 0 1 1 41-42 42 42 0 0 1-41 42z m333 166a42 42 0 1 1 42-41 42 42 0 0 1-42 41z m333-333a42 42 0 1 1 42-42 42 42 0 0 1-42 42z m0-167a42 42 0 1 1 42-41 42 42 0 0 1-42 41z m-333 167a42 42 0 1 1 42-42 42 42 0 0 1-42 42z m333 333a42 42 0 1 1 42-42 42 42 0 0 1-42 42z m0-167a42 42 0 1 1 42-41 42 42 0 0 1-42 42z m-333 0a42 42 0 1 1 42-41 42 42 0 0 1-42 42z m167 0a42 42 0 1 1 41-41 42 42 0 0 1-41 42z m0-333a42 42 0 1 1 41-42 42 42 0 0 1-41 42z" horiz-adv-x="1000" />

<glyph glyph-name="align-justify" unicode="&#xebac;" d="M125 558h750a42 42 0 0 1 0 84h-750a42 42 0 0 1 0-84z m750-416h-750a42 42 0 0 1 0-84h750a42 42 0 0 1 0 84z m0 166h-750a42 42 0 0 1 0-83h750a42 42 0 0 1 0 83z m0 167h-750a42 42 0 0 1 0-83h750a42 42 0 0 1 0 83z" horiz-adv-x="1000" />

<glyph glyph-name="subject" unicode="&#xebad;" d="M542 183h-417a42 42 0 0 1 0-83h417a42 42 0 0 1 0 83z m-417 334h750a42 42 0 0 1 0 83h-750a42 42 0 0 1 0-83z m750-125h-750a42 42 0 0 1 0-84h750a42 42 0 0 1 0 84z" horiz-adv-x="1000" />

<glyph glyph-name="bars" unicode="&#xebae;" d="M125 517h750a42 42 0 0 1 0 83h-750a42 42 0 0 1 0-83z m750-334h-750a42 42 0 0 1 0-83h750a42 42 0 0 1 0 83z m0 209h-750a42 42 0 0 1 0-84h750a42 42 0 0 1 0 84z" horiz-adv-x="1000" />

<glyph glyph-name="eye" unicode="&#xebaf;" d="M913 367c-84 195-242 316-413 316s-329-121-413-316a42 42 0 0 1 0-34c84-195 242-316 413-316s329 121 413 316a42 42 0 0 1 0 34z m-413-267c-132 0-257 95-329 250 72 155 197 250 329 250s257-95 329-250c-72-155-197-250-329-250z m0 417a167 167 0 1 1 167-167 167 167 0 0 1-167 167z m0-250a83 83 0 1 0 83 83 83 83 0 0 0-83-83z" horiz-adv-x="1000" />

<glyph glyph-name="exposure-increase" unicode="&#xebb0;" d="M458 558h-41v42a42 42 0 0 1-84 0v-42h-41a42 42 0 0 1 0-83h41v-42a42 42 0 0 1 84 0v42h41a42 42 0 0 1 0 83z m84-458h166a42 42 0 0 1 0 83h-166a42 42 0 0 1 0-83z m250 667h-584a125 125 0 0 1-125-125v-584a125 125 0 0 1 125-125h584a125 125 0 0 1 125 125v584a125 125 0 0 1-125 125z m-625-692v567a42 42 0 0 0 41 41h567z m666-17a42 42 0 0 0-41-41h-567l608 608z" horiz-adv-x="1000" />

<glyph glyph-name="bright" unicode="&#xebb1;" d="M500 517a167 167 0 1 1 167-167 167 167 0 0 1-167 167z m0-250a83 83 0 1 0 83 83 83 83 0 0 0-83-83z m405 113l-98 95v140a42 42 0 0 1-42 42h-138l-97 98a42 42 0 0 1-60 0l-95-98h-140a42 42 0 0 1-42-42v-140l-98-95a42 42 0 0 1 0-60l98-97v-138a42 42 0 0 1 42-42h140l98-98a42 42 0 0 1 59 0l97 98h138a42 42 0 0 1 42 42v138l98 97a42 42 0 0 1-2 60z m-169-110a42 42 0 0 1-13-30v-113h-113a42 42 0 0 1-30-13l-80-80-80 80a42 42 0 0 1-30 13h-113v113a42 42 0 0 1-13 30l-80 80 80 80a42 42 0 0 1 13 30v113h113a42 42 0 0 1 30 13l80 80 80-80a42 42 0 0 1 30-13h113v-113a42 42 0 0 1 13-30l80-80z" horiz-adv-x="1000" />

<glyph glyph-name="exposure-alt" unicode="&#xebb2;" d="M458 600h-166a42 42 0 0 1 0-83h166a42 42 0 0 1 0 83z m334 167h-584a125 125 0 0 1-125-125v-584a125 125 0 0 1 125-125h584a125 125 0 0 1 125 125v584a125 125 0 0 1-125 125z m-625-692v567a42 42 0 0 0 41 41h567z m666-17a42 42 0 0 0-41-41h-567l608 608z m-291 84h41v-42a42 42 0 0 1 84 0v42h41a42 42 0 0 1 0 83h-41v42a42 42 0 0 1-84 0v-42h-41a42 42 0 0 1 0-83z" horiz-adv-x="1000" />

<glyph glyph-name="capture" unicode="&#xebb3;" d="M125 475a42 42 0 0 1 42 42v125a42 42 0 0 0 41 41h125a42 42 0 0 1 0 84h-125a125 125 0 0 1-125-125v-125a42 42 0 0 1 42-42z m208-458h-125a42 42 0 0 0-41 41v125a42 42 0 0 1-84 0v-125a125 125 0 0 1 125-125h125a42 42 0 0 1 0 84z m167 500a167 167 0 1 1 167-167 167 167 0 0 1-167 167z m0-250a83 83 0 1 0 83 83 83 83 0 0 0-83-83z m292 500h-125a42 42 0 0 1 0-84h125a42 42 0 0 0 41-41v-125a42 42 0 0 1 84 0v125a125 125 0 0 1-125 125z m83-542a42 42 0 0 1-42-42v-125a42 42 0 0 0-41-41h-125a42 42 0 0 1 0-84h125a125 125 0 0 1 125 125v125a42 42 0 0 1-42 42z" horiz-adv-x="1000" />

<glyph glyph-name="arrow-left" unicode="&#xebb4;" d="M708 392h-316l138 137a42 42 0 1 1-60 59l-208-208a42 42 0 0 1-9-14 42 42 0 0 1 0-32 42 42 0 0 1 9-14l208-208a42 42 0 0 1 60 0 42 42 0 0 1 0 59l-138 137h316a42 42 0 0 1 0 84z" horiz-adv-x="1000" />

<glyph glyph-name="arrow-right" unicode="&#xebb5;" d="M747 366a42 42 0 0 1-9 14l-208 208a42 42 0 0 1-60-59l138-137h-316a42 42 0 0 1 0-84h316l-138-137a42 42 0 0 1 0-59 42 42 0 0 1 60 0l208 208a42 42 0 0 1 9 14 42 42 0 0 1 0 32z" horiz-adv-x="1000" />

<glyph glyph-name="arrow-up" unicode="&#xebb6;" d="M738 380l-208 208a42 42 0 0 1-14 9 42 42 0 0 1-32 0 42 42 0 0 1-14-9l-208-208a42 42 0 0 1 59-60l137 138v-316a42 42 0 0 1 84 0v316l137-138a42 42 0 0 1 59 0 42 42 0 0 1 0 60z" horiz-adv-x="1000" />

<glyph glyph-name="focus-target" unicode="&#xebb7;" d="M125 475a42 42 0 0 1 42 42v125a42 42 0 0 0 41 41h125a42 42 0 0 1 0 84h-125a125 125 0 0 1-125-125v-125a42 42 0 0 1 42-42z m208-458h-125a42 42 0 0 0-41 41v125a42 42 0 0 1-84 0v-125a125 125 0 0 1 125-125h125a42 42 0 0 1 0 84z m375 291a42 42 0 0 1 0 84h-47a167 167 0 0 1-119 119v47a42 42 0 0 1-84 0v-47a167 167 0 0 1-119-119h-47a42 42 0 0 1 0-84h47a167 167 0 0 1 119-119v-47a42 42 0 0 1 84 0v47a167 167 0 0 1 119 119z m-208-41a83 83 0 1 0 83 83 83 83 0 0 0-83-83z m375-42a42 42 0 0 1-42-42v-125a42 42 0 0 0-41-41h-125a42 42 0 0 1 0-84h125a125 125 0 0 1 125 125v125a42 42 0 0 1-42 42z m-83 542h-125a42 42 0 0 1 0-84h125a42 42 0 0 0 41-41v-125a42 42 0 0 1 84 0v125a125 125 0 0 1-125 125z" horiz-adv-x="1000" />

<glyph glyph-name="external-link-alt" unicode="&#xebb8;" d="M750 399a42 42 0 0 1-42-41v-300a42 42 0 0 0-41-41h-459a42 42 0 0 0-41 41v459a42 42 0 0 0 41 41h299a42 42 0 0 1 0 84h-299a125 125 0 0 1-125-125v-459a125 125 0 0 1 125-125h459a125 125 0 0 1 125 125v300a42 42 0 0 1-42 41z m163 342a42 42 0 0 1-22 22 42 42 0 0 1-16 4h-250a42 42 0 0 1 0-84h150l-430-428a42 42 0 0 1 0-60 42 42 0 0 1 60 0l428 430v-150a42 42 0 0 1 84 0v250a42 42 0 0 1-4 16z" horiz-adv-x="1000" />

<glyph glyph-name="card-atm" unicode="&#xebb9;" d="M792 663h-584a125 125 0 0 1-125-125v-375a125 125 0 0 1 125-125h584a125 125 0 0 1 125 125v375a125 125 0 0 1-125 125z m41-500a42 42 0 0 0-41-42h-584a42 42 0 0 0-41 42v375a42 42 0 0 0 41 41h584a42 42 0 0 0 41-41z m-166 250a125 125 0 0 1-63-18 125 125 0 1 1 0-215 125 125 0 1 1 63 233z m-118-167a42 42 0 0 0-7 0 42 42 0 0 0 0 83 42 42 0 0 0 7 0 117 117 0 0 1 0-80z m118 0a42 42 0 1 0 41 42 42 42 0 0 0-41-42z" horiz-adv-x="1000" />

<glyph glyph-name="focus-add" unicode="&#xebba;" d="M333 17h-125a42 42 0 0 0-41 41v125a42 42 0 0 1-84 0v-125a125 125 0 0 1 125-125h125a42 42 0 0 1 0 84z m-208 458a42 42 0 0 1 42 42v125a42 42 0 0 0 41 41h125a42 42 0 0 1 0 84h-125a125 125 0 0 1-125-125v-125a42 42 0 0 1 42-42z m667 292h-125a42 42 0 0 1 0-84h125a42 42 0 0 0 41-41v-125a42 42 0 0 1 84 0v125a125 125 0 0 1-125 125z m-125-417a42 42 0 0 1-42 42h-83v83a42 42 0 0 1-84 0v-83h-83a42 42 0 0 1 0-84h83v-83a42 42 0 0 1 84 0v83h83a42 42 0 0 1 42 42z m208-125a42 42 0 0 1-42-42v-125a42 42 0 0 0-41-41h-125a42 42 0 0 1 0-84h125a125 125 0 0 1 125 125v125a42 42 0 0 1-42 42z" horiz-adv-x="1000" />

<glyph glyph-name="focus" unicode="&#xebbb;" d="M333 767h-208a42 42 0 0 1-42-42v-208a42 42 0 0 1 84 0v166h166a42 42 0 0 1 0 84z m0-750h-166v166a42 42 0 0 1-84 0v-208a42 42 0 0 1 42-42h208a42 42 0 0 1 0 84z m542 750h-208a42 42 0 0 1 0-84h166v-166a42 42 0 0 1 84 0v208a42 42 0 0 1-42 42z m0-542a42 42 0 0 1-42-42v-166h-166a42 42 0 0 1 0-84h208a42 42 0 0 1 42 42v208a42 42 0 0 1-42 42z" horiz-adv-x="1000" />

<glyph glyph-name="border-inner" unicode="&#xebbc;" d="M333 642a42 42 0 1 1-41 41 42 42 0 0 1 41-41z m-166-167a42 42 0 1 1-42 42 42 42 0 0 1 42-42z m0 167a42 42 0 1 1-42 41 42 42 0 0 1 42-41z m0-584a42 42 0 1 1 41-41 42 42 0 0 1-41 41z m666 584a42 42 0 1 1-41 41 42 42 0 0 1 41-41z m0-167a42 42 0 1 1-41 42 42 42 0 0 1 41-42z m-166 167a42 42 0 1 1-42 41 42 42 0 0 1 42-41z m166-584a42 42 0 1 1 42-41 42 42 0 0 1-42 41z m-666 167a42 42 0 1 1 41-42 42 42 0 0 1-41 42z m666 0a42 42 0 1 1 42-42 42 42 0 0 1-42 42z m-166-167a42 42 0 1 1 41-41 42 42 0 0 1-41 41z m208 292a42 42 0 0 1-42 42h-291v291a42 42 0 0 1-84 0v-291h-291a42 42 0 0 1 0-84h291v-291a42 42 0 0 1 84 0v291h291a42 42 0 0 1 42 42z m-542-292a42 42 0 1 1 42-41 42 42 0 0 1-42 41z" horiz-adv-x="1000" />

<glyph glyph-name="glass-tea" unicode="&#xebbd;" d="M792 725a125 125 0 0 1-93 42h-398a125 125 0 0 1-125-139l65-583a125 125 0 0 1 125-112h268a125 125 0 0 1 125 112l65 583a125 125 0 0 1-32 97z m-117-671a42 42 0 0 0-42-37h-267a42 42 0 0 0-41 37l-42 379h434z m52 463h-454l-13 120a42 42 0 0 0 10 33 42 42 0 0 0 31 13h398a42 42 0 0 0 31-13 42 42 0 0 0 10-33z m-144-417a42 42 0 0 1 42 42v166a42 42 0 0 1-83 0v-166a42 42 0 0 1 41-42z m-166 0a42 42 0 0 1 41 42v166a42 42 0 0 1-83 0v-166a42 42 0 0 1 42-42z" horiz-adv-x="1000" />

<glyph glyph-name="streering" unicode="&#xebbe;" d="M500 350a42 42 0 1 1 42-42 42 42 0 0 1-42 42z m405 98l0 0a417 417 0 0 1-809 0l0 0a406 406 0 0 1 0-196l0 0a417 417 0 0 1 304-306h0a403 403 0 0 1 196 0h0a417 417 0 0 1 305 304l0 0a406 406 0 0 1 0 197z m-405 235a333 333 0 0 0 309-208h-618a333 333 0 0 0 309 208z m-333-333a344 344 0 0 0 3 42h80v-84h-80a344 344 0 0 0-3 42z m208-309a333 333 0 0 0-184 184h101a83 83 0 0 0 83-83z m167-21a344 344 0 0 0-42-3 344 344 0 0 0-42 3v80h84z m6 163h-96a167 167 0 0 1-119 120v89h334v-89a167 167 0 0 1-119-120z m77-142v101a83 83 0 0 0 83 83h101a333 333 0 0 0-184-184z m205 267h-80v84h80a344 344 0 0 0 3-42 344 344 0 0 0-3-42z" horiz-adv-x="1000" />

<glyph glyph-name="tv-retro-slash" unicode="&#xebbf;" d="M484 520a42 42 0 0 1 16-3h250a42 42 0 0 0 42-42v-222a42 42 0 1 1 83 0v222a125 125 0 0 1-125 125h-150l96 95a42 42 0 1 1-59 60l-167-167a42 42 0 0 1-8-14 42 42 0 0 1 0-31 42 42 0 0 1 22-23z m421-515l-750 750a42 42 0 0 1-60-60l106-105a125 125 0 0 1-76-115v-333a125 125 0 0 1 125-125v-42a42 42 0 0 1 83 0v42h334v-42a42 42 0 0 1 83 0v42a128 128 0 0 1 22 2l73-74a42 42 0 0 1 60 0 42 42 0 0 1 0 60z m-655 95a42 42 0 0 0-42 42v333a42 42 0 0 0 42 42h25l416-417z" horiz-adv-x="1000" />

<glyph glyph-name="wrench" unicode="&#xebc0;" d="M905 201l-189 188a285 285 0 0 1 6 58 320 320 0 0 1-454 290 42 42 0 0 1-24-31 42 42 0 0 1 11-37l182-181-75-75-181 182a42 42 0 0 1-37 11 42 42 0 0 1-31-23 320 320 0 0 1 292-455 285 285 0 0 1 58 6l188-189a42 42 0 0 1 59 0 42 42 0 0 1 0 60l-204 204a42 42 0 0 1-39 11 245 245 0 0 0-62-9 236 236 0 0 0-238 236 250 250 0 0 0 3 42l163-164a42 42 0 0 1 60 0l132 134a42 42 0 0 1 0 58l-162 163a255 255 0 0 0 42 3 236 236 0 0 0 235-236 245 245 0 0 0-8-62 42 42 0 0 1 11-39l204-204a42 42 0 0 1 59 59z" horiz-adv-x="1000" />

<glyph glyph-name="football-american" unicode="&#xebc1;" d="M910 618a170 170 0 0 1-48 94h0a170 170 0 0 1-93 48 569 569 0 0 1-221-10 49 49 0 0 1-8-3 602 602 0 0 1-279-158 608 608 0 0 1-159-281c0-2 0-5-2-8a571 571 0 0 1-10-220 170 170 0 0 1 47-92h0a170 170 0 0 1 94-48 547 547 0 0 1 87-7 575 575 0 0 1 136 17l6 0a606 606 0 0 1 438 438c0 2 0 5 2 8a571 571 0 0 1 10 222z m-228 65a435 435 0 0 0 73-5 70 70 0 0 0 10-3l-57-58-64 64c13 2 26 2 38 2z m-362-153a530 530 0 0 0 225 133l105-105-90-89-30 30a42 42 0 0 1-60 0 42 42 0 0 1 0-59l31-30-61-60-30 30a42 42 0 0 1-59 0 42 42 0 0 1 0-59l30-30-89-91-105 105a528 528 0 0 0 133 225z m-145-445a70 70 0 0 0-2 10 474 474 0 0 0-6 111l66-64z m70-62a70 70 0 0 0-10 2l57 58 64-66a474 474 0 0 0-111 6z m435 147a528 528 0 0 0-225-133l-105 105 90 89 30-30a42 42 0 1 1 60 59l-30 30 60 60 30-30a42 42 0 0 1 30-12 42 42 0 0 1 29 71l-30 30 89 91 105-105a528 528 0 0 0-133-225z m153 324l-66 64 58 57a70 70 0 0 0 2-10 474 474 0 0 0 6-111z" horiz-adv-x="1000" />

<glyph glyph-name="water-drop-slash" unicode="&#xebc2;" d="M905 5l-750 750a42 42 0 0 1-60-60l167-166a519 519 0 0 1-83-274 323 323 0 0 1 321-322 318 318 0 0 1 245 113l100-101a42 42 0 0 1 60 0 42 42 0 0 1 0 60z m-405 12a240 240 0 0 0-240 239 429 429 0 0 0 62 213l364-364a236 236 0 0 0-186-88z m-48 615c19 17 36 31 48 41 60-46 214-184 237-370a42 42 0 0 1 41-36h5a42 42 0 0 1 37 46c-33 268-286 440-296 447a42 42 0 0 1-47 0 780 780 0 0 1-82-67 42 42 0 0 1 57-61z" horiz-adv-x="1000" />

<glyph glyph-name="layers" unicode="&#xebc3;" d="M104 410l375-217a42 42 0 0 1 42 0l375 217a42 42 0 0 1 0 72l-375 217a42 42 0 0 1-42 0l-375-217a42 42 0 0 1 0-72z m396 205l292-167-292-169-292 167z m354-325l-354-205-354 205a42 42 0 0 1-57-15 42 42 0 0 1 15-57l375-217a42 42 0 0 1 42 0l375 217a42 42 0 0 1 15 57 42 42 0 0 1-57 15z" horiz-adv-x="1000" />

<glyph glyph-name="print-slash" unicode="&#xebc4;" d="M292 433a42 42 0 1 1 41-41 42 42 0 0 1-41 41z m-137 322a42 42 0 0 1-60-60l98-95a125 125 0 0 1-110-125v-250a125 125 0 0 1 125-125h42v-125a42 42 0 0 1 42-42h416a42 42 0 0 1 42 42v66l95-96a42 42 0 0 1 60 0 42 42 0 0 1 0 60z m95-530v-42h-42a42 42 0 0 0-41 42v250a42 42 0 0 0 41 42h67l250-250h-233a42 42 0 0 1-42-42z m417-208h-334v166h275l59-58z m125 583h-42v125a42 42 0 0 1-42 42h-347a42 42 0 0 1 0-84h306v-83h-139a42 42 0 0 1 0-83h264a42 42 0 0 0 41-42v-250a15 15 0 0 0 0-5 42 42 0 0 1 33-49l8 0a42 42 0 0 1 42 34 118 118 0 0 1 1 20v250a125 125 0 0 1-125 125z" horiz-adv-x="1000" />

<glyph glyph-name="android-phone-slash" unicode="&#xebc5;" d="M470 112a42 42 0 0 1 60 0 48 48 0 0 1 8 14 39 39 0 0 1 0 32 48 48 0 0 1-8 13 42 42 0 0 1-60 0 48 48 0 0 1-8-13 39 39 0 0 1 0-32 48 48 0 0 1 8-14z m-109 571h306a42 42 0 0 0 41-41v-306a42 42 0 0 1 84 0v306a125 125 0 0 1-125 125h-306a42 42 0 0 1 0-84z m544-678l-750 750a42 42 0 0 1-60-60l113-112v-525a125 125 0 0 1 125-125h334a125 125 0 0 1 115 77l63-65a42 42 0 0 1 60 0 42 42 0 0 1 0 60z m-197 53a42 42 0 0 0-41-41h-334a42 42 0 0 0-41 41v442l416-417z" horiz-adv-x="1000" />
</font>
</defs>
</svg>
